Giuseppe Verdi – Falstaff – Ambrogio Maestri, The Metropolitan Opera Orchestra and Chorus, Robert Carsen, James Levine (2015) Blu-ray 1080i AVC DTS-HD MA 5.1

Сomposer: Giuseppe Verdi (1813-1901)
Title: Falstaff
Release Date: 2015
Genre: Classical, Opera
Director: Robert Carsen
Conductor: James Levine
Artist: Ambrogio Maestri (Falstaff), Angela Meade (Alice Ford), Franco Vassallo (Ford), Lisette Oropesa (Nannetta), Paolo Fanale (Fenton), Stephanie Blythe (Mistress Quickly), Jennifer Johnson Cano (Meg Page), Keith Jameson (Bardolfo), Christian Van Horn (Pistola), The Metropolitan Opera Orchestra and Chorus

Production/Label: Decca
Duration: 02:06:50
Quality: Blu-ray
Container: BDMV
Video codec: AVC
Audio codec: DTS, PCM
Video: MPEG-4 AVC Video / 26996 kbps / 1080i / 29,970 fps / 16:9 / High Profile 4.1
Audio#1: Italian / DTS-HD Master Audio / 5.1 / 48 kHz / 3964 kbps / 24-bit (DTS Core: 5.1 / 48 kHz / 1509 kbps / 24-bit)
Audio#2: Italian / LPCM Audio / 2.0 / 48 kHz / 2304 kbps / 24-bit
Subtitles: English, French, German, Korean, Chinese
Size: 35.22 GB

Verdi’s brilliant final masterpiece Falstaff, in its first new Met production in 50 years — and conducted by Met Music Director James Levine in his first new production since his return to his podium at the Met.

When it comes to theatrical flair, captivating costumes, stage antics and imagination, there are not many shows on Broadway to rival the Met s new Falstaff

James Levine conducts Verdi s final masterpiece with affectionate energy while Ambrogio Maestri, heading a stellar cast, projects towering bravado and rare baritonal fervour in the title role –(Financial Times)

This visual feast, served up by director Robert Carsen, is a thoughtful, affecting and hilarious staging that updates the action from the time of Henry IV to England in the 1950s –New York Times

pic pic pic pic
pic pic pic pic
pic pic pic pic

DISC INFO:

Disc Title:     Verdi.Falstaff.Ambrogio Maestri, Met Opera, Robert Carsen, James Levine.2015.BD1080i
Disc Size:      37 819 339 947 bytes
Protection:     AACS
BD-Java:        No
BDInfo:         0.5.8

PLAYLIST REPORT:

Name:                   00000.MPLS
Length:                 2:06:50.402 (h:m:s.ms)
Size:                   33 603 944 448 bytes
Total Bitrate:          35,32 Mbps

VIDEO:

Codec                   Bitrate             Description
-----                   -------             -----------
MPEG-4 AVC Video        26996 kbps          1080i / 29,970 fps / 16:9 / High Profile 4.1

AUDIO:

Codec                           Language        Bitrate         Description
-----                           --------        -------         -----------
LPCM Audio                      Italian         2304 kbps       2.0 / 48 kHz / 2304 kbps / 24-bit
DTS-HD Master Audio             Italian         3964 kbps       5.1 / 48 kHz / 3964 kbps / 24-bit (DTS Core: 5.1 / 48 kHz / 1509 kbps / 24-bit)

SUBTITLES:

Codec                           Language        Bitrate         Description
-----                           --------        -------         -----------
Presentation Graphics           English         24,115 kbps
Presentation Graphics           French          27,736 kbps
Presentation Graphics           German          29,307 kbps
Presentation Graphics           Korean          23,958 kbps
Presentation Graphics           Chinese         16,657 kbps

FILES:

Name            Time In         Length          Size            Total Bitrate
----            -------         ------          ----            -------------
00000.M2TS      0:00:00.000     1:17:07.055     20 349 935 616  35 184
00001.M2TS      1:17:07.055     0:49:42.346     13 089 509 376  35 112
00301.M2TS      2:06:49.401     0:00:01.000     164 499 456     1 314 681

Blu-Ray Disc:

https://subyshare.com/2czc45igdp3w/Verdi.Falstaff.Ambrogio.Maestri.Met.Opera.2015.BD1080i.part01.rar.html
https://subyshare.com/85i5r0bzzv1i/Verdi.Falstaff.Ambrogio.Maestri.Met.Opera.2015.BD1080i.part02.rar.html
https://subyshare.com/6bpo7n2f7eyu/Verdi.Falstaff.Ambrogio.Maestri.Met.Opera.2015.BD1080i.part03.rar.html
https://subyshare.com/32ufprolv2fu/Verdi.Falstaff.Ambrogio.Maestri.Met.Opera.2015.BD1080i.part04.rar.html
https://subyshare.com/x4jx065v3iaw/Verdi.Falstaff.Ambrogio.Maestri.Met.Opera.2015.BD1080i.part05.rar.html
https://subyshare.com/98o9t3thf56m/Verdi.Falstaff.Ambrogio.Maestri.Met.Opera.2015.BD1080i.part06.rar.html
https://subyshare.com/i84uy47lfl25/Verdi.Falstaff.Ambrogio.Maestri.Met.Opera.2015.BD1080i.part07.rar.html
https://subyshare.com/g9dji3o22i4c/Verdi.Falstaff.Ambrogio.Maestri.Met.Opera.2015.BD1080i.part08.rar.html
https://subyshare.com/uur5qm5qwbpo/Verdi.Falstaff.Ambrogio.Maestri.Met.Opera.2015.BD1080i.part09.rar.html
https://subyshare.com/bn3g87avope7/Verdi.Falstaff.Ambrogio.Maestri.Met.Opera.2015.BD1080i.part10.rar.html
https://subyshare.com/evuct9kv06ur/Verdi.Falstaff.Ambrogio.Maestri.Met.Opera.2015.BD1080i.part11.rar.html
https://subyshare.com/aw8156bw124x/Verdi.Falstaff.Ambrogio.Maestri.Met.Opera.2015.BD1080i.part12.rar.html
https://subyshare.com/6xmordn39xi1/Verdi.Falstaff.Ambrogio.Maestri.Met.Opera.2015.BD1080i.part13.rar.html
https://subyshare.com/ehe0lz4suw2i/Verdi.Falstaff.Ambrogio.Maestri.Met.Opera.2015.BD1080i.part14.rar.html
https://subyshare.com/pxysrqr28vfu/Verdi.Falstaff.Ambrogio.Maestri.Met.Opera.2015.BD1080i.part15.rar.html
https://subyshare.com/w9lds8w026oe/Verdi.Falstaff.Ambrogio.Maestri.Met.Opera.2015.BD1080i.part16.rar.html
https://subyshare.com/350d54eyaqi2/Verdi.Falstaff.Ambrogio.Maestri.Met.Opera.2015.BD1080i.part17.rar.html
https://subyshare.com/lz1v1ho3ymad/Verdi.Falstaff.Ambrogio.Maestri.Met.Opera.2015.BD1080i.part18.rar.html
https://subyshare.com/ygj9tx777cy6/Verdi.Falstaff.Ambrogio.Maestri.Met.Opera.2015.BD1080i.part19.rar.html
https://subyshare.com/2dj2xcmhcdpd/Verdi.Falstaff.Ambrogio.Maestri.Met.Opera.2015.BD1080i.part20.rar.html
https://subyshare.com/87d4q9w3z6ut/Verdi.Falstaff.Ambrogio.Maestri.Met.Opera.2015.BD1080i.part21.rar.html
https://subyshare.com/hysusqiediuj/Verdi.Falstaff.Ambrogio.Maestri.Met.Opera.2015.BD1080i.part22.rar.html
https://subyshare.com/k8rx5n8g7jo1/Verdi.Falstaff.Ambrogio.Maestri.Met.Opera.2015.BD1080i.part23.rar.html
https://subyshare.com/w0dy4by0pfqj/Verdi.Falstaff.Ambrogio.Maestri.Met.Opera.2015.BD1080i.part24.rar.html

Winrar Recovery Volumes

https://subyshare.com/jo6tju32bg6m/Verdi.Falstaff.Ambrogio.Maestri.Met.Opera.2015.BD1080i.part01.rev.html
https://subyshare.com/1fs0rsz21xpw/Verdi.Falstaff.Ambrogio.Maestri.Met.Opera.2015.BD1080i.part02.rev.html
https://subyshare.com/yfluwqpo7rut/Verdi.Falstaff.Ambrogio.Maestri.Met.Opera.2015.BD1080i.part03.rev.html