Jacques Offenbach: Les Contes d’Hoffmann (2015) Blu-ray 1080i AVC DTS-HD 5.0

Сomposer: Jacques Offenbach (1819-1880)
Title: Les Contes d’Hoffmann
Release Date: 2016
Genre: Opera
Stage Director: Stefan Herheim
Video Director: Felix Breisach
Conductor: Johannes Debus
Artist: Daniel Johansson (Hoffmann), Kerstin Avemo (Olympia, Giulietta), Mandy Fredrich (Antonia, Giulietta), Rachel Frenkel (Muse, Niklausse, Die Stimme der Mutter), Michael Volle (Lindorf, Coppélius, Dr. Miracle, Dapertutto), Bengt-Ola Morgny (Spalanzani), Ketil Hugaas (Crespel, Luther), Christoph Mortagne (Andrès, Cochenille, Frantz, Pitichinaccio), Prague Philharmonic Choir, Wiener Symphoniker

Production/Label: C Major Entertainment GmbH
Duration: 02:54:44
Quality: Blu-ray
Container: BDMV
Video codec: AVC
Audio codec: DTS, PCM
Video: MPEG-4 AVC 23958 kbps / 1920*1080i / 29.970 fps / 16:9 / High Profile 4.1
Audio#1: French DTS-HD MA 5.0 / 48 kHz / 4089 kbps / 24-bit (DTS Core: 5.0 / 48 kHz / 1509 kbps / 24-bit)
Audio#2: French LPCM 2.0 / 48 kHz / 2304 kbps / 24-bit
Subtitles: French, English, German, Spanish, Chinese, Korean, Japanese
Size: 40.94 GB

Bregenz’s Tales of Hoffmann is different from everything you saw before. The New York Times praised the “thoughtfulness and creativity” of Stefan Herheim’s new production, devised by the director as a search for one’s own self in a sparkling drag show. A “shining-toned” (NYT) Hoffmann is embodied by tenor Daniel Johansson in the title role. He is supported by a fantastic cast: “Rachel Frenkel is positively ideal as Muse and Niklausse” (Kurier), Kerstin Avemo as Olympia is “endowed with brilliant, cheekily extemporized coloraturas” (Neue Zürcher Zeitung), Michael Volle sings the parts of Lindorf, Coppélius, Dr. Miracle and Dapertutto, “the work’s four villains, with warmth and intensity” (NYT) and Mandy Fredrich is a “finelyphrased Antonia” (Kurier). OPERA NEWS Review

Recorded live at Bregenz Festival, 2015.

Tracklist:

Jacques Offenbach (1819-1880)
Les Contes d’Hoffmann

(The Tales of Hoffmann – Hoffmanns Erzählungen)
Opera in five acts

Olympia / Giulietta – Kerstin Avemo
Antonia / Giulietta – Mandy Fredrich
La Muse / Nicklausse / La Voix de la tombe – Rachel Frenkel
Hoffmann – Daniel Johansson
Lindorf / Luther / Coppélius / Miracle / Dapertutto – Michael Volle
Spalanzani – Bengt-Ola Morgny
Crespel – Ketil Hugaas
Andrès / Cochenille / Frantz – Christophe Mortagne

Prague Philharmonic Chorus (chorus master: Lukáš Vasilek)
Vienna Symphony Orchestra
Johannes Debus
, conductor

Stefan Herheim, stage director
Christof Hetzer, set designer
Esther Bialas, costume designer
Andreas Hofer “Phoenix”, lighting designer

• Recorded live at Bregenz Festival, 2015

DISC INFO:

Disc Title:     LES CONTES D HOFFMANN
Disc Size:      43,955,182,931 bytes
Protection:     AACS
BD-Java:        No
BDInfo:         0.5.8

PLAYLIST REPORT:

Name:                   00003.MPLS
Length:                 2:54:44.273 (h:m:s.ms)
Size:                   42,169,417,728 bytes
Total Bitrate:          32.18 Mbps

VIDEO:

Codec                   Bitrate             Description    
-----                   -------             -----------    
MPEG-4 AVC Video        23958 kbps          1080i / 29.970 fps / 16:9 / High Profile 4.1

AUDIO:

Codec                           Language        Bitrate         Description    
-----                           --------        -------         -----------    
LPCM Audio                      French          2304 kbps       2.0 / 48 kHz / 2304 kbps / 24-bit
DTS-HD Master Audio             French          4089 kbps       5.0 / 48 kHz / 4089 kbps / 24-bit (DTS Core: 5.0 / 48 kHz / 1509 kbps / 24-bit)

SUBTITLES:

Codec                           Language        Bitrate         Description    
-----                           --------        -------         -----------    
Presentation Graphics           French          19.426 kbps                    
Presentation Graphics           English         19.738 kbps                    
Presentation Graphics           German          19.897 kbps                    
Presentation Graphics           Spanish         19.113 kbps                    
Presentation Graphics           Chinese         18.462 kbps                    
Presentation Graphics           Korean          14.819 kbps                    
Presentation Graphics           Japanese        14.527 kbps                    

FILES:

Name            Time In         Length          Size            Total Bitrate  
----            -------         ------          ----            -------------  
00007.M2TS      0:00:00.000     1:21:53.308     19,790,254,080  32,223          
00009.M2TS      1:21:53.308     1:32:32.880     22,369,517,568  32,228          
00006.M2TS      2:54:26.189     0:00:09.042     4,823,040       4,267          
00001.M2TS      2:54:35.231     0:00:09.042     4,823,040       4,267

Download:

https://subyshare.com/9ihnah8sbmip/LES_CONTES_D_HOFFMANN.part01.rar.html
https://subyshare.com/vv01ea3u3ygl/LES_CONTES_D_HOFFMANN.part02.rar.html
https://subyshare.com/7wcjmj9gkqos/LES_CONTES_D_HOFFMANN.part03.rar.html
https://subyshare.com/x14mhuy3tqu7/LES_CONTES_D_HOFFMANN.part04.rar.html
https://subyshare.com/f979xsif1lu0/LES_CONTES_D_HOFFMANN.part05.rar.html
https://subyshare.com/uuw31cna638n/LES_CONTES_D_HOFFMANN.part06.rar.html
https://subyshare.com/rwlhygzz2ntr/LES_CONTES_D_HOFFMANN.part07.rar.html
https://subyshare.com/cxkeu9b85ioa/LES_CONTES_D_HOFFMANN.part08.rar.html
https://subyshare.com/b0fcotbkz3b7/LES_CONTES_D_HOFFMANN.part09.rar.html
https://subyshare.com/mbo8j6y5tmdv/LES_CONTES_D_HOFFMANN.part10.rar.html
https://subyshare.com/jedrvbactnii/LES_CONTES_D_HOFFMANN.part11.rar.html
https://subyshare.com/jb4c0e49h24y/LES_CONTES_D_HOFFMANN.part12.rar.html
https://subyshare.com/8z2v0mijb3o0/LES_CONTES_D_HOFFMANN.part13.rar.html
https://subyshare.com/y5hbxrqqxk1m/LES_CONTES_D_HOFFMANN.part14.rar.html
https://subyshare.com/i2u1wen6gmsw/LES_CONTES_D_HOFFMANN.part15.rar.html
https://subyshare.com/vn0uj6u75knu/LES_CONTES_D_HOFFMANN.part16.rar.html
https://subyshare.com/1hdk8xa3whza/LES_CONTES_D_HOFFMANN.part17.rar.html
https://subyshare.com/zondlag7immi/LES_CONTES_D_HOFFMANN.part18.rar.html
https://subyshare.com/juhjtd93lj7z/LES_CONTES_D_HOFFMANN.part19.rar.html
https://subyshare.com/azjjd4zy99r5/LES_CONTES_D_HOFFMANN.part20.rar.html
https://subyshare.com/xz1ljww7ouin/LES_CONTES_D_HOFFMANN.part21.rar.html
https://subyshare.com/u8v003avv6hs/LES_CONTES_D_HOFFMANN.part22.rar.html
https://subyshare.com/dao0m8l2r0tk/LES_CONTES_D_HOFFMANN.part23.rar.html
https://subyshare.com/pfkei39qx8ib/LES_CONTES_D_HOFFMANN.part24.rar.html
https://subyshare.com/0v4o9lwv0rhr/LES_CONTES_D_HOFFMANN.part25.rar.html
https://subyshare.com/ikhw6wppnwf4/LES_CONTES_D_HOFFMANN.part26.rar.html
https://subyshare.com/zuzkzgei5a28/LES_CONTES_D_HOFFMANN.part27.rar.html
https://subyshare.com/ryjm7g4fiq6y/LES_CONTES_D_HOFFMANN.part28.rar.html


Winrar Recovery Volumes

https://subyshare.com/u2fxkl4ynrsa/LES_CONTES_D_HOFFMANN.part01.rev.html
https://subyshare.com/kve5s4u8uhjx/LES_CONTES_D_HOFFMANN.part02.rev.html
https://subyshare.com/o1mjzu9ycdmb/LES_CONTES_D_HOFFMANN.part03.rev.html