Lady Gaga – Alejandro (2009) PCM Master H.264 1080p

Genre: Pop
Duration: 00:08:52
Year: 2009

Quality: Master
Video Resolution / Scan: 1080p
Container: MOV
Video codec: H.264
Audio Codec: PCM
Video: AVC, 1920 * 1080p (16: 9), 68.9 Mbps, 23.976 fps
Audio: LPCM, 1 536 Kbps, 48.0 KHz, 2 channels
Size: 4.36 GB

“Alejandro” is a song by American singer Lady Gaga. It was released as the third single from her third extended play (EP) The Fame Monster (2009). Co-written and produced by herself and RedOne, the song inspired by her “Fear of Men Monster”, the lyrics portray Gaga bidding farewell to her lovers. Musically, it is a mid-tempo synth-pop song.

Contemporary critics predominantly gave “Alejandro” positive reviews and noted that it takes influence from the pop acts ABBA, Ace of Base and Madonna. The song charted in the United Kingdom and Hungary due to digital sales following the album’s release. Upon release, “Alejandro” charted again in the United Kingdom as well as in Australia, Canada, New Zealand, Sweden, and the United States while topping the Finnish, Polish, Russian, Bulgarian, and Romanian charts. “Alejandro” became Gaga’s seventh successive single to reach the top-ten of the US Billboard Hot 100.

The accompanying music video was directed by fashion photographer Steven Klein and inspired by Gaga’s love for her gay friends and admiration of gay love. Within the video, Gaga dances with a group of soldiers in a cabaret, interspersed with scenes of Gaga as a nun swallowing a rosary and near-naked men holding machine guns. The music video was controversial and received mixed reviews. Critics complimented its idea and dark nature while the Catholic League criticized Gaga for alleged blasphemy, despite Klein dismissing the idea and claiming that the scene in question (the swallowing of Rosary beads) was Gaga’s “desire to take in the Holy”.[3] Gaga performed the song on the ninth season of American Idol and has performed it on all dates of The Monster Ball Tour. The song was also included on her 2012–13 tour The Born This Way Ball, as well as on her 2014 tour, ArtRave: The Artpop Ball.

pic pic pic pic pic pic pic pic pic

General
Complete name               : C:\Users\Админ\Downloads\Lady Gaga - Alejandro (PCM-Master-1080p-Abdi).mov
Format                      : QuickTime
Format/Info                 : Original Apple specifications
File size                   : 4.36 GiB
Duration                    : 8 min 52 s
Overall bit rate            : 70.4 Mb/s
Encoded date                : UTC 2011-08-25 21:44:03
Tagged date                 : UTC 2011-08-25 22:04:17
Writing library             : Apple QuickTime

Video
ID                          : 1
Format                      : AVC
Format/Info                 : Advanced Video Codec
Format profile              : [email protected]
Format settings, CABAC      : No
Format settings, ReFrames   : 2 frames
Format settings, GOP        : M=1, N=120
Codec ID                    : avc1
Codec ID/Info               : Advanced Video Coding
Duration                    : 8 min 52 s
Bit rate                    : 68.9 Mb/s
Width                       : 1 920 pixels
Height                      : 1 080 pixels
Display aspect ratio        : 16:9
Frame rate mode             : Constant
Frame rate                  : 23.976 (23976/1000) FPS
Color space                 : YUV
Chroma subsampling          : 4:2:0
Bit depth                   : 8 bits
Scan type                   : Progressive
Bits/(Pixel*Frame)          : 1.386
Stream size                 : 4.27 GiB (98%)
Language                    : English
Encoded date                : UTC 2011-08-25 21:44:03
Tagged date                 : UTC 2011-08-25 22:04:17
Color range                 : Limited
Color primaries             : BT.709
Transfer characteristics    : BT.709
Matrix coefficients         : BT.709

Audio
ID                          : 2
Format                      : PCM
Format settings, Endianness : Big
Format settings, Sign       : Signed
Codec ID                    : twos
Duration                    : 8 min 52 s
Bit rate mode               : Constant
Bit rate                    : 1 536 kb/s
Channel(s)                  : 2 channels
Sampling rate               : 48.0 kHz
Bit depth                   : 16 bits
Stream size                 : 97.4 MiB (2%)
Language                    : English
Encoded date                : UTC 2011-08-25 21:44:03
Tagged date                 : UTC 2011-08-25 22:04:17

Download:

https://subyshare.com/jf08i70irkuh/LadyGagaAlejandr0PCMMaster1080pAbdi.part1.rar.html
https://subyshare.com/h647u4oz6lzh/LadyGagaAlejandr0PCMMaster1080pAbdi.part2.rar.html
https://subyshare.com/drz0pbza2r29/LadyGagaAlejandr0PCMMaster1080pAbdi.part3.rar.html
https://subyshare.com/cjg85t3ahn7a/LadyGagaAlejandr0PCMMaster1080pAbdi.part4.rar.html