Lady Gaga – I Want Your Love (2015) PCM Master ProRes 1080p

Genre: Pop
Duration: 00:03:28
Year: 2015

Quality: Master
Video Resolution / Scan: 1080p
Container: MOV
Video codec: Apple ProRes
Audio Codec: AAC
Video: APCH, 1920 * 1080p, 178 Mbps, 25 fps
Audio: AAC, 128 Kbps, 48.0 KHz, 2 channels
Size: 4.32 GB

pic pic pic pic pic pic pic pic pic

General
Complete name               : C:\Users\User\Downloads\Lady Gaga - I Want Your Love (AAC-ProRes-1080p-Abdi).mov
Format                      : MPEG-4
Format profile              : QuickTime
Codec ID                    : qt   2005.03 (qt  )
File size                   : 4.32 GiB
Duration                    : 3 min 28 s
Overall bit rate mode       : Variable
Overall bit rate            : 178 Mb/s
Encoded date                : UTC 2015-10-02 03:39:10
Tagged date                 : UTC 2015-10-02 03:42:13
Writing library             : Apple QuickTime
©TIM                        : 00:59:59:05
©TSC                        : 25
©TSZ                        : 1

Video
ID                          : 1
Format                      : ProRes
Format version              : Version 0
Format profile              : 422 HQ
Codec ID                    : apch
Duration                    : 3 min 28 s
Bit rate mode               : Variable
Bit rate                    : 178 Mb/s
Width                       : 1 920 pixels
Height                      : 1 080 pixels
Display aspect ratio        : 16:9
Frame rate mode             : Constant
Frame rate                  : 25.000 FPS
Color space                 : YUV
Chroma subsampling          : 4:2:2
Scan type                   : Progressive
Bits/(Pixel*Frame)          : 3.429
Stream size                 : 4.32 GiB (100%)
Writing library             : Apple
Language                    : English
Encoded date                : UTC 2015-10-02 03:39:10
Tagged date                 : UTC 2015-10-02 03:42:11
Color primaries             : BT.709
Transfer characteristics    : BT.709
Matrix coefficients         : BT.709

Audio
ID                          : 2
Format                      : AAC
Format/Info                 : Advanced Audio Codec
Format profile              : LC
Codec ID                    : 40
Duration                    : 3 min 28 s
Source duration             : 3 min 28 s
Bit rate mode               : Constant
Bit rate                    : 128 kb/s
Channel(s)                  : 2 channels
Channel positions           : Front: L R
Sampling rate               : 48.0 kHz
Frame rate                  : 46.875 FPS (1024 spf)
Compression mode            : Lossy
Stream size                 : 3.18 MiB (0%)
Source stream size          : 3.18 MiB (0%)
Language                    : English
Encoded date                : UTC 2015-10-02 03:39:10
Tagged date                 : UTC 2015-10-02 03:42:11

Other
ID                          : 3
Type                        : Time code
Format                      : QuickTime TC
Duration                    : 3 min 28 s
Time code of first frame    : 00:59:59:05
Time code, striped          : Yes
Language                    : English
Encoded date                : UTC 2015-10-02 03:42:11
Tagged date                 : UTC 2015-10-02 03:42:11

Download:

https://subyshare.com/3ikguya6mds3/LadyGagaIWantY0urL0veAACPr0Res1080pAbdi.part1.rar.html
https://subyshare.com/flqwqyst39t4/LadyGagaIWantY0urL0veAACPr0Res1080pAbdi.part2.rar.html
https://subyshare.com/5hnhi0ach5ni/LadyGagaIWantY0urL0veAACPr0Res1080pAbdi.part3.rar.html
https://subyshare.com/ytk91eekkmby/LadyGagaIWantY0urL0veAACPr0Res1080pAbdi.part4.rar.html