Osipov State Russian Folk Orchestra – Balalaika Favorites (1963) [Reissue 2005] {2.0 & 3.0} [PS3 ISO + FLAC]

Osipov State Russian Folk Orchestra – Balalaika Favorites (1963) [Reissue 2005] {2.0 & 3.0}
PS3 Rip | ISO | SACD DST64 2.0 & 5.1 > 1-bit/2.8224 MHz | 49:34 minutes | Scans included | 2,34 GB
or FLAC 2.0 Stereo (converted with foobar2000 to tracks) 24bit/88,2 kHz | Scans included | 946 MB
Mercury Living Presence 35mm series | Features 2.0 and 3.0 multichannel surround sound

This is the first recordings ever made in the Soviet Union by american musical and technical stuff and equipment, recorded on lovation in Moscow. This SACD presents, for the first time, the Osipov State Russian Folk Orchestra’s legendary recordings in their original 3-channel (left, right & centre) versions. Using the original 35mm film masters, the disc features a DSD 3-channel stereo and a new DSD stereo transfer.

For what it is, it doesn’t get any better than this. What it is, of course, is a collection of Russian folk music played with astonishing artistry by the Ossipov State Russian Folk Orchestra, an ensemble made up of dormas, gooslis, Vladimir Shepherd’s Horns, and, naturally, balalaikas, balalaikas, balalaikas. The sound of such an orchestra is far different from any other Western ensemble — imagine an orchestra of guitars, mandolins, pan pipes, and harps — but still deep, colorful, and subtle. The sound of the music is likewise far different from any other Western music — imagine folks songs long on melody and rhythm and short on harmony and form — but still charming, delightful, and, in its own way, unutterably appealing. Certainly, this disc charmed audiences when it was first released in the early ’60s on Mercury Living Presence: the LP was a classical best seller. Part of the appeal might have been its incredibly realistic sound: recorded on 35 mm film on three channels, the LP quickly became a favorite of stereophiles everywhere. Restored in super-audio, three-channel digital, the disc sounds more realistic than ever, with the lead balalaika sitting in a chair to the listener’s right and the lead goosli sitting in a chair on his/her left. While not for everyone, anyone who loves the exotic, the unusual, and the extraordinarily well-recorded will appreciate this disc.

Tracklist:
01. Fantasy on Two Folk Songs (Budashkin)
02. At Sunrise (arr. Gorodovskaya)
03. The Linden Tree (Kulikov)
04. Kamarinskaya (Osipov)
05. Fantasy on Volga Melodies (Mikhailov-Shalayev)
06. In the Moonlight (Andreyev)
07. Midnight in Moscow (Soloviev-Sedoy)
08. Under the Apple Tree (Andreyev)
09. Dance of the Comedians (Tchaikovsky)
10. The Living Room (Shishakov)
11. Evening Bells (arr. Mossolov)
12. My Dear Old Friend, Please Visit Me (arr. Poponov)
13. Waltz of the Faun (Andreyev)
14. Flight of the Bumble-Bee (Rimsky-Korsakov)
OSIPOV STATE RUSSIAN FOLK ORCHESTRA.
Rudolf Belov – domra soloist. Conducted by Vitaly Gnutov.

foobar2000 1.1.18 / Dynamic Range Meter 1.1.1
--------------------------------------------------------------------------------
Analyzed: Rudolf Belov, domra soloist / Osipov State Russian Folk Orchestra / Conductor: Vitaly Gnutov / Balalaika Favorites
--------------------------------------------------------------------------------
DR Peak RMS Duration Track
--------------------------------------------------------------------------------
DR7 -9.99 dB -31.91 dB 7:07 01-Fantasy on Two Folk Songs (Budashkin)
DR7 -7.82 dB -27.41 dB 4:26 02-At Sunrise (arr. Gorodovskaya)
DR6 -10.37 dB -31.06 dB 4:20 03-The Linden Tree (Kulikov)
DR7 -9.28 dB -29.29 dB 2:44 04-Kamarinskaya (Osipov)
DR7 -9.32 dB -28.78 dB 4:47 05-Fantasy on Volga Melodies (Mikhailov-Shalayev)
DR7 -7.85 dB -26.44 dB 3:06 06-In the Moonlight (Andreyev)
DR6 -11.95 dB -29.54 dB 2:31 07-Midnight in Moscow (Soloviev-Sedoy)
DR7 -8.47 dB -27.11 dB 2:13 08-Under the Apple Tree (Andreyev)
DR6 -8.21 dB -25.45 dB 4:32 09-Dance of the Comedians (Tchaikovsky)
DR7 -8.73 dB -29.67 dB 1:27 10-The Living Room (Shishakov)
DR6 -9.38 dB -30.52 dB 4:18 11-Evening Bells (arr. Mossolov)
DR8 -8.53 dB -29.22 dB 2:26 12-My Dear Old Friend, Please Visit Me (arr. Poponov)
DR7 -7.54 dB -27.72 dB 4:21 13-Waltz of the Faun (Andreyev)
DR7 -10.16 dB -31.31 dB 1:16 14-Flight of the Bumble-Bee (Rimsky-Korsakov)
--------------------------------------------------------------------------------
Number of tracks: 14
Official DR value: DR7
Samplerate: 2822400 Hz / PCM Samplerate: 88200 Hz
Channels: 5
Bits per sample: 24
Bitrate: 14112 kbps
Codec: DST64
================================================================================
--------------------------------------------------------------------------------
Analyzed: Rudolf Belov, domra soloist / Osipov State Russian Folk Orchestra / Conductor: Vitaly Gnutov / Balalaika Favorites
--------------------------------------------------------------------------------
DR Peak RMS Duration Track
--------------------------------------------------------------------------------
DR13 -8.87 dB -28.33 dB 7:07 01-Fantasy on Two Folk Songs (Budashkin)
DR12 -6.16 dB -24.13 dB 4:26 02-At Sunrise (arr. Gorodovskaya)
DR12 -9.02 dB -27.76 dB 4:20 03-The Linden Tree (Kulikov)
DR13 -8.37 dB -25.89 dB 2:44 04-Kamarinskaya (Osipov)
DR13 -7.97 dB -25.50 dB 4:47 05-Fantasy on Volga Melodies (Mikhailov-Shalayev)
DR12 -6.01 dB -23.26 dB 3:06 06-In the Moonlight (Andreyev)
DR11 -9.63 dB -26.47 dB 2:31 07-Midnight in Moscow (Soloviev-Sedoy)
DR12 -7.02 dB -23.93 dB 2:13 08-Under the Apple Tree (Andreyev)
DR11 -6.30 dB -22.02 dB 4:32 09-Dance of the Comedians (Tchaikovsky)
DR13 -7.31 dB -26.44 dB 1:27 10-The Living Room (Shishakov)
DR11 -8.27 dB -27.19 dB 4:18 11-Evening Bells (arr. Mossolov)
DR14 -7.30 dB -26.02 dB 2:26 12-My Dear Old Friend, Please Visit Me (arr. Poponov)
DR12 -7.81 dB -24.48 dB 4:21 13-Waltz of the Faun (Andreyev)
DR13 -9.05 dB -28.08 dB 1:16 14-Flight of the Bumble-Bee (Rimsky-Korsakov)
--------------------------------------------------------------------------------
Number of tracks: 14
Official DR value: DR12
Samplerate: 2822400 Hz / PCM Samplerate: 88200 Hz
Channels: 2
Bits per sample: 24
Bitrate: 5645 kbps
Codec: DST64

ISO

https://subyshare.com/0ydz30gjsywu/0sip0vStateRussianF0lk0rchestraBalalaikaFav0rites19632006RemasterSACDIS0.part1.rar.html
https://subyshare.com/bkc0d9v1vs1l/0sip0vStateRussianF0lk0rchestraBalalaikaFav0rites19632006RemasterSACDIS0.part2.rar.html
https://subyshare.com/mhqgqhs6hm3x/0sip0vStateRussianF0lk0rchestraBalalaikaFav0rites19632006RemasterSACDIS0.part3.rar.html

 

 

FLAC