Riccardo Muti, Wiener Philharmoniker – New Year’s Concert 2018 / Neujahrskonzert 2018 (2018) HDTV 1080i AVC DTS HD-MA 5.0

Title: New Year’s Concert 2018
Release Date: 2018
Genre: Classical
Composers:Johann Strauss Jr., Josef Strauss, Johann Strauss sen, Franz von Suppé, Alphons Czibulka
Conductor: Riccardo Muti
Artist: Wiener Philharmoniker – orchestra, Singverein der Gesellschaft der Musikfreunde in Wien – chorus

Duration: 02:49:11
Quality: HDTV
Container: MKV
Video codec: AVC
Audio codec: DTS, MP2
Video: AVC, 1920×1080 (16:9), 25.000 fps, 24.8 Mbps
Audio#1: DTS MA / Core, 48.0 KHz, 5 ch, 1 673  Kbps / 755 Kbps, German
Audio#2: DTS MA / Core, 48.0 KHz, 5 ch, 1 670 Kbps / 755 Kbps
Audio#3: MP2, 48.0 KHz, 2 ch, 384 Kbps, German
Audio#4: MP2, 48.0 KHz, 2 ch, 384 Kbps
Size: 33.66 GB

It has long been a Philharmonic tradition at the New Year to present a program consisting of the lively and at the same time nostalgic music from the vast repertoire of the family of Johann Strauss and its contemporaries. These concerts not only delight the audiences in the Musikverein in Vienna, but also enjoy great international popularity through the worldwide television broadcast, which now reaches over 90 countries.

With nearly five hundred waltzes, marches, quadrilles, polkas and so on in Johann Strauss’ son’s repertoire, it is no wonder that the world-famous Vienna New Year’s Concert – conducted on the 1st January by Riccardo Muti, who is no newcomer to the event since he has led the orchestra in 1993, 1997 2000 and 2004 – still finds new pieces for their “New Year’s Concert creations”. This year, it’s Brautschau op. 417 and Myrthenblüten op. 395. Further novelties come from the Viennese cirlce: father Johann Strauss, with Marienwalzer and Wilhelm-Tell-Galopp, Alfons Czibulka (1842–1894) who kicks off the New Year with Stephanie-Gavotte, as well as a work from Josef Strauss, Wiener Fresken. And of course, as tradition goes, we find The Blue Danube and the inevitable Radetzky March to which the audience applauds in rhythm. By the way, this comes from J. Strauss the father, not from his more famous son. In fact, the concert version is actually an arrangement, very common nowadays, thanks to a certain Leopold Weninger. We would like to add that Harnoncourt performed two versions in 2001, Strauss’ version for the military brass band and Weninger’s version for symphony orchestra, and then again in 2005 in memory of the victims of the devastating tsunami in the Indian Ocean where the march was not played due to its overly festive nature.

Tracklist:
Part 1
Johann Strauss, Jr.
Entrance March from the Operetta “The Gypsy Baron”
Josef Strauss
Wiener Fresken (Viennese Frescos), Waltz, op. 249
Johann Strauss, Jr.
Brautschau (Bride Shopping), Polka, op. 417
Leichtes Blut (Light of Heart), Fast Polka, op. 319
Johann Strauss, sen.
Marienwalzer (Maria Waltz), op. 212
William Tell Galop, op. 29b
Intermission:
Wiener Moderne 1918-2018 – short musical film
Part 2
Franz von Suppé
Overture to “Boccaccio”
Johann Strauss, Jr.
Myrthenblüten (Myrtle Blossoms), Waltz, op. 395
Alphons Czibulka
Stephanie Gavotte, op. 312
Johann Strauss, Jr.
Freikugeln (Magic Bullets), Fast Polka, op. 326
Tales from the Vienna Woods, Waltz, op. 325
Fest-Marsch (Festival March), op. 452
Stadt und Land (Town and Country), Polka Mazurka, op. 322
Un ballo in maschera (Masked Ball), Quadrille, op. 272
Rosen aus dem Süden (Roses from the South), Waltz, op. 388
Josef Strauss
Eingesendet (Letters to the Editor), Fast Polka, op. 240

pic pic pic pic
pic pic pic pic
pic pic pic

General
Unique ID                                : 218374562163138516075641388480173472903 (0xA449692C9068234F890D544072907C87)
Complete name                            : Vienna Philharmonic Orchestra - New Year's Concert 2018 with Riccardo Muti - MPEG4+DTS HD-MA5.0.mkv
Format                                   : Matroska
Format version                           : Version 2
File size                                : 33.7 GiB
Duration                                 : 2 h 49 min
Overall bit rate                         : 28.5 Mb/s
Encoded date                             : UTC 2018-01-06 17:04:10
Writing application                      : mkvmerge v9.8.0 ('Kuglblids') 64bit
Writing library                          : libebml v1.3.4 + libmatroska v1.4.5

Video
ID                                       : 1
Format                                   : AVC
Format/Info                              : Advanced Video Codec
Format profile                           : High 4:2:[email protected]
Format settings                          : CABAC / 3 Ref Frames
Format settings, CABAC                   : Yes
Format settings, RefFrames               : 3 frames
Format settings, GOP                     : M=4, N=15
Codec ID                                 : V_MPEG4/ISO/AVC
Duration                                 : 2 h 49 min
Bit rate mode                            : Constant
Bit rate                                 : 24.8 Mb/s
Width                                    : 1 920 pixels
Height                                   : 1 080 pixels
Display aspect ratio                     : 16:9
Frame rate mode                          : Variable
Frame rate                               : 37.463 FPS
Original frame rate                      : 25.000 FPS
Color space                              : YUV
Chroma subsampling                       : 4:2:2
Bit depth                                : 8 bits
Scan type                                : MBAFF
Scan type, store method                  : Interleaved fields
Scan order                               : Top Field First
Bits/(Pixel*Frame)                       : 0.319
Stream size                              : 28.8 GiB (86%)
Default                                  : Yes
Forced                                   : No
Color range                              : Limited
Color primaries                          : BT.709
Transfer characteristics                 : BT.709
Matrix coefficients                      : BT.709

Audio #1
ID                                       : 2
Format                                   : DTS
Format/Info                              : Digital Theater Systems
Format profile                           : MA / Core
Codec ID                                 : A_DTS
Duration                                 : 2 h 49 min
Bit rate mode                            : Variable / Constant
Bit rate                                 : 1 673 kb/s / 768 kb/s
Channel(s)                               : 5 channels
Channel positions                        : Front: L C R, Side: L R
Sampling rate                            : 48.0 kHz
Frame rate                               : 93.750 FPS (512 SPF)
Bit depth                                : 16 bits
Compression mode                         : Lossless / Lossy
Delay relative to video                  : -336 ms
Stream size                              : 1.98 GiB (6%)
Title                                    : Commentary
Language                                 : German
Default                                  : Yes
Forced                                   : No

Audio #2
ID                                       : 3
Format                                   : DTS
Format/Info                              : Digital Theater Systems
Format profile                           : MA / Core
Codec ID                                 : A_DTS
Duration                                 : 2 h 49 min
Bit rate mode                            : Variable / Constant
Bit rate                                 : 1 670 kb/s / 768 kb/s
Channel(s)                               : 5 channels
Channel positions                        : Front: L C R, Side: L R
Sampling rate                            : 48.0 kHz
Frame rate                               : 93.750 FPS (512 SPF)
Bit depth                                : 16 bits
Compression mode                         : Lossless / Lossy
Delay relative to video                  : -336 ms
Stream size                              : 1.97 GiB (6%)
Default                                  : No
Forced                                   : No

Audio #3
ID                                       : 4
Format                                   : MPEG Audio
Format version                           : Version 1
Format profile                           : Layer 2
Codec ID                                 : A_MPEG/L2
Codec ID/Hint                            : MP2
Duration                                 : 2 h 49 min
Bit rate mode                            : Constant
Bit rate                                 : 384 kb/s
Channel(s)                               : 2 channels
Sampling rate                            : 48.0 kHz
Frame rate                               : 41.667 FPS (1152 SPF)
Compression mode                         : Lossy
Delay relative to video                  : -336 ms
Stream size                              : 465 MiB (1%)
Title                                    : Commentary
Language                                 : German
Default                                  : No
Forced                                   : No

Audio #4
ID                                       : 5
Format                                   : MPEG Audio
Format version                           : Version 1
Format profile                           : Layer 2
Codec ID                                 : A_MPEG/L2
Codec ID/Hint                            : MP2
Duration                                 : 2 h 49 min
Bit rate mode                            : Constant
Bit rate                                 : 384 kb/s
Channel(s)                               : 2 channels
Sampling rate                            : 48.0 kHz
Frame rate                               : 41.667 FPS (1152 SPF)
Compression mode                         : Lossy
Delay relative to video                  : -336 ms
Stream size                              : 465 MiB (1%)
Default                                  : No
Forced                                   : No  

Download:

https://subyshare.com/cdefoxx447wv/ViennaPhilharm0nic0rchestraNewYearsC0ncert2018.part01.rar.html
https://subyshare.com/m2blwxbz0xla/ViennaPhilharm0nic0rchestraNewYearsC0ncert2018.part02.rar.html
https://subyshare.com/k75cvgzqqnc6/ViennaPhilharm0nic0rchestraNewYearsC0ncert2018.part03.rar.html
https://subyshare.com/3nfsogb4vw8y/ViennaPhilharm0nic0rchestraNewYearsC0ncert2018.part04.rar.html
https://subyshare.com/u0z7om8cjtdm/ViennaPhilharm0nic0rchestraNewYearsC0ncert2018.part05.rar.html
https://subyshare.com/yr3rmzzl59f1/ViennaPhilharm0nic0rchestraNewYearsC0ncert2018.part06.rar.html
https://subyshare.com/s6gyir53frqg/ViennaPhilharm0nic0rchestraNewYearsC0ncert2018.part07.rar.html
https://subyshare.com/lj7izgd2q98d/ViennaPhilharm0nic0rchestraNewYearsC0ncert2018.part08.rar.html
https://subyshare.com/g58g645j3lol/ViennaPhilharm0nic0rchestraNewYearsC0ncert2018.part09.rar.html
https://subyshare.com/w83bmd5u7daw/ViennaPhilharm0nic0rchestraNewYearsC0ncert2018.part10.rar.html
https://subyshare.com/7h2c0i1dlrzi/ViennaPhilharm0nic0rchestraNewYearsC0ncert2018.part11.rar.html
https://subyshare.com/47r591mjv07y/ViennaPhilharm0nic0rchestraNewYearsC0ncert2018.part12.rar.html
https://subyshare.com/fqhgbz8qvw1p/ViennaPhilharm0nic0rchestraNewYearsC0ncert2018.part13.rar.html
https://subyshare.com/ff52ukc6rpvi/ViennaPhilharm0nic0rchestraNewYearsC0ncert2018.part14.rar.html
https://subyshare.com/5i50yqyc13zl/ViennaPhilharm0nic0rchestraNewYearsC0ncert2018.part15.rar.html
https://subyshare.com/1hyl90s2ms2p/ViennaPhilharm0nic0rchestraNewYearsC0ncert2018.part16.rar.html
https://subyshare.com/nzpieav69v8c/ViennaPhilharm0nic0rchestraNewYearsC0ncert2018.part17.rar.html
https://subyshare.com/yzi48bmntgsv/ViennaPhilharm0nic0rchestraNewYearsC0ncert2018.part18.rar.html
https://subyshare.com/d7eh6uhk62tj/ViennaPhilharm0nic0rchestraNewYearsC0ncert2018.part19.rar.html
https://subyshare.com/l6cf9cwdj6tn/ViennaPhilharm0nic0rchestraNewYearsC0ncert2018.part20.rar.html
https://subyshare.com/k9pef04zw7zz/ViennaPhilharm0nic0rchestraNewYearsC0ncert2018.part21.rar.html
https://subyshare.com/01hfnlw52sav/ViennaPhilharm0nic0rchestraNewYearsC0ncert2018.part22.rar.html
https://subyshare.com/8uvhf35xfay0/ViennaPhilharm0nic0rchestraNewYearsC0ncert2018.part23.rar.html

Winrar Recovery Volumes
https://subyshare.com/8nmehmisg2yb/ViennaPhilharm0nic0rchestraNewYearsC0ncert2018.part01.rev.html
https://subyshare.com/2dcluhqxvw9j/ViennaPhilharm0nic0rchestraNewYearsC0ncert2018.part02.rev.html
https://subyshare.com/lqeygh44bwsb/ViennaPhilharm0nic0rchestraNewYearsC0ncert2018.part03.rev.html