Rock in Rio 2017 Aerosmith 1080i HDTV x264 DD 5 1-CELOBRAZiL

Format : MPEG-TS
File size : 9.79 GiB
Duration : 1h 45mn
Overall bit rate mode : Variable
Overall bit rate : 13.3 Mbps

Video
ID : 1328 (0x530)
Menu ID : 1336 (0x538)
Format : AVC
Format/Info : Advanced Video Codec
Format profile : [email protected]
Format settings, CABAC : Yes
Format settings, ReFrames : 4 frames
Codec ID : 27
Duration : 1h 45mn
Bit rate : 12.3 Mbps
Width : 1 920 pixels
Height : 1 080 pixels
Display aspect ratio : 16:9
Frame rate : 29.970 fps
Color space : YUV
Chroma subsampling : 4:2:0
Bit depth : 8 bits
Scan type : MBAFF
Scan order : Top Field First
Bits/(Pixel*Frame) : 0.197
Stream size : 9.03 GiB (92%)

Audio
ID : 1329 (0x531)
Menu ID : 1336 (0x538)
Format : AC-3
Format/Info : Audio Coding 3
Mode extension : CM (complete main)
Format settings, Endianness : Big
Codec ID : 129
Duration : 1h 45mn
Bit rate mode : Constant
Bit rate : 384 Kbps
Channel(s) : 6 channels
Channel positions : Front: L C R, Side: L R, LFE
Sampling rate : 48.0 KHz
Bit depth : 16 bits
Compression mode : Lossy
Stream size : 290 MiB (3%)
Language : English

Download:

https://subyshare.com/tmwbdieevw61/Rock.in.Rio.2017.Aerosmith.1080i.HDTV-CELOBRAZiL.part1.rar.html
https://subyshare.com/hj461ves0s78/Rock.in.Rio.2017.Aerosmith.1080i.HDTV-CELOBRAZiL.part2.rar.html
https://subyshare.com/e410cfgmsavh/Rock.in.Rio.2017.Aerosmith.1080i.HDTV-CELOBRAZiL.part3.rar.html
https://subyshare.com/loyo3tcw33rs/Rock.in.Rio.2017.Aerosmith.1080i.HDTV-CELOBRAZiL.part4.rar.html
https://subyshare.com/8d4gauwboc84/Rock.in.Rio.2017.Aerosmith.1080i.HDTV-CELOBRAZiL.part5.rar.html
https://subyshare.com/dewfz2ylpqn5/Rock.in.Rio.2017.Aerosmith.1080i.HDTV-CELOBRAZiL.part6.rar.html
https://subyshare.com/qvartkylp0ow/Rock.in.Rio.2017.Aerosmith.1080i.HDTV-CELOBRAZiL.part7.rar.html