Rock in Rio 2017 Justin Timberlake 1080i HDTV x264 DD 5.1-ZMG

General
Complete name: Rock.in.Rio.2017.D3.Justin.Timberlake.1080i.HDTV-ZMG.mkv
Format: Matroska
Format version: Version 4 / Version 2
File size: 6.89 GiB
Duration: 1h 31mn
Overall bit rate: 10.8 Mbps
Encoded date: UTC 2017-09-18 05:48:15
Writing application: mkvmerge v6.4.1 (‘Omega Point’) built on Sep 16 2013 22:05:10
Writing library: libebml v1.3.0 + libmatroska v1.4.1

Video
ID: 1
Format: AVC
Format/Info: Advanced Video Codec
Format profile: [email protected]
Format settings, CABAC: Yes
Format settings, ReFrames: 4 frames
Format settings, GOP: M=4, N=32
Codec ID: V_MPEG4/ISO/AVC
Duration: 1h 31mn
Bit rate: 10.2 Mbps
Width: 1 920 pixels
Height: 1 080 pixels
Display aspect ratio: 16:9
Frame rate: 29.970 fps
Color space: YUV
Chroma subsampling: 4:2:0
Bit depth: 8 bits
Scan type: MBAFF
Bits/(Pixel*Frame): 0.163
Stream size: 6.51 GiB (94%)
Default: Yes
Forced: No

Audio
ID: 2
Format: AC-3
Format/Info: Audio Coding 3
Mode extension: CM (complete main)
Codec ID: A_AC3
Duration: 1h 31mn
Bit rate mode: Constant
Bit rate: 384 Kbps
Channel(s): 6 channels
Channel positions: Front: L C R, Side: L R, LFE
Sampling rate: 48.0 KHz
Bit depth: 16 bits
Compression mode: Lossy
Delay relative to video: -29ms
Stream size: 252 MiB (4%)
Language: Portuguese
Default: Yes
Forced: No

PLAYLIST

  • Only When I Walk Away
  • Suit & Tie
  • Don’t Hold the Wall
  • FutureSex/LoveSound
  • Lily / My Love
  • Summer Love
  • Señorita
  • Let the Groove Get In
  • Drink You Away
  • LoveStoned
  • Until the End of Time
  • Holy Grail / Cry Me A River
  • What Goes Around… Comes Around
  • Rock Your Body
  • Can’t Stop the Feeling / Lovely Day
  • SexyBack
  • Mirrors
  • Download:

    https://subyshare.com/nnerl2fr7ghp/Rock.in.Rio.2017.D3.Justin.Timberlake.1080i.HDTV-ZMG.part1.rar.html
    https://subyshare.com/gx8jt6ygdqqt/Rock.in.Rio.2017.D3.Justin.Timberlake.1080i.HDTV-ZMG.part2.rar.html
    https://subyshare.com/4s92p4maii6b/Rock.in.Rio.2017.D3.Justin.Timberlake.1080i.HDTV-ZMG.part3.rar.html
    https://subyshare.com/5zimds9u8nls/Rock.in.Rio.2017.D3.Justin.Timberlake.1080i.HDTV-ZMG.part4.rar.html
    https://subyshare.com/zgkwnyu0xbmj/Rock.in.Rio.2017.D3.Justin.Timberlake.1080i.HDTV-ZMG.part5.rar.html