Rock in Rio 2017 Red Hot Chili Peppers 1080i HDTV x264 DD 5.1-ZMG

General
Complete name: Rock.in.Rio.2017.D7.Red.Hot.Chili.Peppers.1080i.HDTV-ZMG.mkv
Format: Matroska
Format version: Version 4 / Version 2
File size: 7.02 GiB
Duration: 1h 35mn
Overall bit rate: 10.6 Mbps
Encoded date: UTC 2017-09-25 05:26:53
Writing application: mkvmerge v6.4.1 (‘Omega Point’) built on Sep 16 2013 22:05:10
Writing library: libebml v1.3.0 + libmatroska v1.4.1

Video
ID: 1
Format: AVC
Format/Info: Advanced Video Codec
Format profile: [email protected]
Format settings, CABAC: Yes
Format settings, ReFrames: 4 frames
Format settings, GOP: M=4, N=32
Codec ID: V_MPEG4/ISO/AVC
Duration: 1h 35mn
Bit rate: 9 972 Kbps
Width: 1 920 pixels
Height: 1 080 pixels
Display aspect ratio: 16:9
Frame rate: 29.970 fps
Color space: YUV
Chroma subsampling: 4:2:0
Bit depth: 8 bits
Scan type: MBAFF
Bits/(Pixel*Frame): 0.160
Stream size: 6.62 GiB (94%)
Default: Yes
Forced: No

Audio
ID: 2
Format: AC-3
Format/Info: Audio Coding 3
Mode extension: CM (complete main)
Codec ID: A_AC3
Duration: 1h 35mn
Bit rate mode: Constant
Bit rate: 384 Kbps
Channel(s): 6 channels
Channel positions: Front: L C R, Side: L R, LFE
Sampling rate: 48.0 KHz
Bit depth: 16 bits
Compression mode: Lossy
Delay relative to video: -28ms
Stream size: 261 MiB (4%)
Language: Portuguese
Default: Yes
Forced: No

PLAYLIST

  • Intro Jam
  • Can’t Stop
  • Snow ((Hey Oh))
  • The Zephyr Song
  • Dark Necessities
  • Did I Let You Know
  • I Wanna Be Your Dog
  • Right on Time
  • Go Robot
  • Californication
  • Tell Me Baby
  • Sir Psycho Sexy
  • They’re Red Hot
  • The Power of Equality
  • Under the Bridge
  • By the Way
  • Goodbye Angels
  • Give It Away

  • Download:

    https://subyshare.com/7wudrpd93alf/Rock.in.Rio.2017.D7.Red.Hot.Chili.Peppers.1080i.HDTV-ZMG.part1.rar.html
    https://subyshare.com/y852jjwaopy1/Rock.in.Rio.2017.D7.Red.Hot.Chili.Peppers.1080i.HDTV-ZMG.part2.rar.html
    https://subyshare.com/m49f97g40uin/Rock.in.Rio.2017.D7.Red.Hot.Chili.Peppers.1080i.HDTV-ZMG.part3.rar.html
    https://subyshare.com/fg3w16n331ft/Rock.in.Rio.2017.D7.Red.Hot.Chili.Peppers.1080i.HDTV-ZMG.part4.rar.html
    https://subyshare.com/k07qggg6dkyv/Rock.in.Rio.2017.D7.Red.Hot.Chili.Peppers.1080i.HDTV-ZMG.part5.rar.html