Rock in Rio 2017 Tears for Fears 1080i HDTV x264 DD 5.1-CELOBRAZiL

General
Complete name : Rock.in.Rio.2017.Tears.for.Fears.1080i.HDTV.x264-CELOBRAZiL.ts
Format : MPEG-TS
File size : 5.78 GiB
Duration : 1h 10mn
Overall bit rate : 11.7 Mbps
Video
ID : 1328 (0x530)
Menu ID : 1336 (0x538)
Format : AVC
Format/Info : Advanced Video Codec
Format profile : [email protected]
Format settings, CABAC : Yes
Format settings, ReFrames : 4 frames
Codec ID : 27
Duration : 1h 10mn
Bit rate : 10.8 Mbps
Width : 1 920 pixels
Height : 1 080 pixels
Display aspect ratio : 16:9
Frame rate : 29.970 fps
Color space : YUV
Chroma subsampling : 4:2:0
Bit depth : 8 bits
Scan type : MBAFF
Bits/(Pixel*Frame) : 0.173
Stream size : 5.30 GiB (92%)
Audio
ID : 1329 (0x531)
Menu ID : 1336 (0x538)
Format : AC-3
Format/Info : Audio Coding 3
Mode extension : CM (complete main)
Codec ID : 129
Duration : 1h 10mn
Bit rate mode : Constant
Bit rate : 384 Kbps
Channel(s) : 6 channels
Channel positions : Front: L C R, Side: L R, LFE
Sampling rate : 48.0 KHz
Bit depth : 16 bits
Compression mode : Lossy
Stream size : 194 MiB (3%)
Language : English

PLAYLIST

  • Everybody Wants to Rule the World [Lorde version]
  • Everybody Wants to Rule the World
  • Secret World
  • Sowing the Seeds of Love
  • Advice for the Young at Heart
  • Everybody Loves a Happy Ending
  • Change
  • Mad World
  • Memories Fade
  • Creep
  • Pale Shelter
  • Break It Down Again
  • Head Over Heels
  • Shout
  • Download:

    https://subyshare.com/gzvzumcec390/Rock.in.Rio.2017.Tears.for.Fears.1080i.HDTV.x264-CELOBRAZiL.part1.rar.html
    https://subyshare.com/yjmwpwva6hmg/Rock.in.Rio.2017.Tears.for.Fears.1080i.HDTV.x264-CELOBRAZiL.part2.rar.html
    https://subyshare.com/f1ovvmv0pawz/Rock.in.Rio.2017.Tears.for.Fears.1080i.HDTV.x264-CELOBRAZiL.part3.rar.html
    https://subyshare.com/wqydrzipd3gy/Rock.in.Rio.2017.Tears.for.Fears.1080i.HDTV.x264-CELOBRAZiL.part4.rar.html
    https://subyshare.com/zq3ems65bxpj/Rock.in.Rio.2017.Tears.for.Fears.1080i.HDTV.x264-CELOBRAZiL.part5.rar.html