The 2016 MTV Video Music Awards – Uncensored – Backhaul Feed 1080i h264 61mbps MPA2.0-ALANiS

Duration: 2:07:24
Year: 2016
Source – HDBits
Quality: HDTV
Video Resolution / Scan: 1080i
Container: TS
Video codec: H.264
Audio codec: MP2
Video: AVC, 1920×1080 (16: 9), 29.970 fps, 58.0 Mbps
Audio # 1: MP2, 48.0 KHz, 2 ch, 384 Kbps
Audio # 2: MP2, 48.0 KHz, 2 ch, 384 Kbps
Size: 54,98 GB

The 2016 MTV Video Music Awards were held on August 28, 2016 at Madison Square Garden in Manhattan. Adele’s “Hello” was the most nominated video with seven categories. Beyoncé led the nominations with a total of eleven, followed by Adele, who had eight.Rihanna received the Michael Jackson Video Vanguard Award after performing several medley numbers during the ceremony.Britney Spears marked her first performance at the awards show since the heavily-criticized 2007 show nine years prior.Beyoncé won eight awards to bring her career total of wins to 24 VMAs, overtaking Madonna’s previous record of 20 awards, making her the artist with the most wins in the history of the award show.

Tracklist:

Rihanna – Don’t Stop The Music / Only Girl (In The World) / We Found Love / Where Have You Been
Ariana Grande & Nicki Minaj – Side to Side
Future – Fuck Up Some Commas
Rihanna – Rude Boy / What’s My Name? / Work
Nick Jonas & Ty Dolla $ign – Bacon
Beyoncé – Pray You Catch Me / Hold Up / Sorry / Don’t Hurt Yourself / Formation
Britney Spears & G-Eazy Make Me… / Me, Myself & I
Rihanna – Needed Me / Pour It Up / Bitch Better Have My Money
The Chainsmokers & Halsey – Closer
Rihanna – Stay / Diamonds / Love on the Brain

pic pic pic pic
pic pic pic pic
pic pic pic pic
pic pic pic pic
pic pic pic pic
pic pic

General
ID                                       : 1 (0x1)
Complete name                            : O:\The 2016 MTV Video Music Awards - Uncensored - Backhaul Feed 1080i h264 61mbps MPA2.0-ALANiS.ts
Format                                   : MPEG-TS
File size                                : 55.0 GiB
Duration                                 : 2h 7mn
Overall bit rate mode                    : Variable
Overall bit rate                         : 61.8 Mbps

Video
ID                                       : 308 (0x134)
Menu ID                                  : 1 (0x1)
Format                                   : AVC
Format/Info                              : Advanced Video Codec
Format profile                           : [email protected]
Format settings, CABAC                   : No
Format settings, ReFrames                : 4 frames
Codec ID                                 : 27
Duration                                 : 2h 7mn
Bit rate                                 : 58.0 Mbps
Width                                    : 1 920 pixels
Height                                   : 1 080 pixels
Display aspect ratio                     : 16:9
Frame rate                               : 29.970 (30000/1001) fps
Color space                              : YUV
Chroma subsampling                       : 4:2:0
Bit depth                                : 8 bits
Scan type                                : Interlaced
Scan type, store method                  : Separated fields
Scan order                               : Top Field First
Bits/(Pixel*Frame)                       : 0.933
Stream size                              : 51.6 GiB (94%)
Color range                              : Limited
Color primaries                          : BT.709
Transfer characteristics                 : BT.709
Matrix coefficients                      : BT.709

Audio #1
ID                                       : 256 (0x100)
Menu ID                                  : 1 (0x1)
Format                                   : MPEG Audio
Format version                           : Version 1
Format profile                           : Layer 2
Codec ID                                 : 3
Duration                                 : 2h 7mn
Bit rate mode                            : Constant
Bit rate                                 : 384 Kbps
Channel(s)                               : 2 channels
Sampling rate                            : 48.0 KHz
Compression mode                         : Lossy
Stream size                              : 350 MiB (1%)
Language                                 : English

Audio #2
ID                                       : 257 (0x101)
Menu ID                                  : 1 (0x1)
Format                                   : MPEG Audio
Format version                           : Version 1
Format profile                           : Layer 2
Codec ID                                 : 3
Duration                                 : 2h 7mn
Bit rate mode                            : Constant
Bit rate                                 : 384 Kbps
Channel(s)                               : 2 channels
Sampling rate                            : 48.0 KHz
Compression mode                         : Lossy
Stream size                              : 350 MiB (1%)
Language                                 : English

Download:

https://subyshare.com/273j4aex2no7/2016.MTV.Video.Music.Awards.part01.rar.html
https://subyshare.com/dnapmtn8117f/2016.MTV.Video.Music.Awards.part02.rar.html
https://subyshare.com/9kg73y8o26y6/2016.MTV.Video.Music.Awards.part03.rar.html
https://subyshare.com/m660h9sovjev/2016.MTV.Video.Music.Awards.part04.rar.html
https://subyshare.com/zdrij6grtk61/2016.MTV.Video.Music.Awards.part05.rar.html
https://subyshare.com/8iuqtop0rsec/2016.MTV.Video.Music.Awards.part06.rar.html
https://subyshare.com/e1qcuyxql0ei/2016.MTV.Video.Music.Awards.part07.rar.html
https://subyshare.com/tekqm1if44wb/2016.MTV.Video.Music.Awards.part08.rar.html
https://subyshare.com/7icv2u2zxqgu/2016.MTV.Video.Music.Awards.part09.rar.html
https://subyshare.com/030v3ilfazbp/2016.MTV.Video.Music.Awards.part10.rar.html
https://subyshare.com/6tieyzu9pzuu/2016.MTV.Video.Music.Awards.part11.rar.html
https://subyshare.com/b8mtzprztxfo/2016.MTV.Video.Music.Awards.part12.rar.html
https://subyshare.com/gp1sitarill1/2016.MTV.Video.Music.Awards.part13.rar.html
https://subyshare.com/qzg5nie8haf5/2016.MTV.Video.Music.Awards.part14.rar.html
https://subyshare.com/e768vjqhed9r/2016.MTV.Video.Music.Awards.part15.rar.html
https://subyshare.com/mkx8sqhvc1iw/2016.MTV.Video.Music.Awards.part16.rar.html
https://subyshare.com/b1delnfkcp3m/2016.MTV.Video.Music.Awards.part17.rar.html
https://subyshare.com/oc9nsr3wz8y0/2016.MTV.Video.Music.Awards.part18.rar.html
https://subyshare.com/e3fnauucwahr/2016.MTV.Video.Music.Awards.part19.rar.html
https://subyshare.com/ezojf26cqd1f/2016.MTV.Video.Music.Awards.part20.rar.html
https://subyshare.com/28n8y8i4a0zr/2016.MTV.Video.Music.Awards.part21.rar.html
https://subyshare.com/0f3fdncjzwsv/2016.MTV.Video.Music.Awards.part22.rar.html
https://subyshare.com/2ftihy9amdmt/2016.MTV.Video.Music.Awards.part23.rar.html
https://subyshare.com/z9q07lslxb0x/2016.MTV.Video.Music.Awards.part24.rar.html
https://subyshare.com/7kih34hnst4t/2016.MTV.Video.Music.Awards.part25.rar.html
https://subyshare.com/6id02lphffko/2016.MTV.Video.Music.Awards.part26.rar.html
https://subyshare.com/evw2ck37yj3e/2016.MTV.Video.Music.Awards.part27.rar.html
https://subyshare.com/llsle57ngjg1/2016.MTV.Video.Music.Awards.part28.rar.html
https://subyshare.com/4b7bgsens85m/2016.MTV.Video.Music.Awards.part29.rar.html
https://subyshare.com/6kblfagojrj9/2016.MTV.Video.Music.Awards.part30.rar.html
https://subyshare.com/ep8ob8du8q5x/2016.MTV.Video.Music.Awards.part31.rar.html
https://subyshare.com/p2x4jgupgi52/2016.MTV.Video.Music.Awards.part32.rar.html
https://subyshare.com/8d2gf8mv89sl/2016.MTV.Video.Music.Awards.part33.rar.html
https://subyshare.com/8yojlnwa30sk/2016.MTV.Video.Music.Awards.part34.rar.html
https://subyshare.com/9gzlja96mblj/2016.MTV.Video.Music.Awards.part35.rar.html
https://subyshare.com/e8jm6tgkrepf/2016.MTV.Video.Music.Awards.part36.rar.html
https://subyshare.com/xj5en7z3qesp/2016.MTV.Video.Music.Awards.part37.rar.html

Winrar Recovery Volumes
https://subyshare.com/p1c6erlshsf7/2016.MTV.Video.Music.Awards.part01.rev.html
https://subyshare.com/xgtrl8p614wj/2016.MTV.Video.Music.Awards.part02.rev.html
https://subyshare.com/adw81erjj4nj/2016.MTV.Video.Music.Awards.part03.rev.html
https://subyshare.com/fbu6xq93dqdt/2016.MTV.Video.Music.Awards.part04.rev.html