Van Morrison – Moondance (Deluxe Edition) (1970/2013) [High Fidelity Pure Audio Blu-Ray Disc]

Genre: Pop, Rock, Soul, Irish Folk
Year of the album’s release: 1970
Year of publication: 2013

Duration: 00:39:20
Size: 5.11 GB

In the fall of 1969, Van Morrison entered the studio to record Moondance, the album that would soon become his commercial breakthrough and one of the most beloved recordings of all time. Fans will soon have the rare opportunity to experience this classic album like never before with the newly remastered and expanded version featuring 50 unreleased tracks including studio outtakes of favorites, plus multiple takes and a final mix of the unheard track “I Shall Sing.”
The Deluxe Edition includes 4 CDs/1 Blu-Ray Audio with newly remastered version of the original album, three discs of previously unreleased music from the sessions, a Blu-Ray Audio disc with high-resolution 48K 24 bit PCM stereo and DTS-HD Master Audio 5.1 surround sound audio of original album (no video). The package is presented in a linen-wrapped folio Includes a booklet with liner notes from Alan Light and original engineer Elliot Scheiner.
The Deluxe Edition unearths an amazing trove of unreleased gems that take the listener right alongside Morrison and his band in studio. There are multiple, often lengthy, takes from the recording sessions of nearly every track found on the 1970 original, including “Glad Tidings,” “Brand New Day” and “Come Running.” There are also early takes of “I’ve Been Working,” a song that would appear later that year on His Band And The Street Choir. The early version included here is quite different from the official album version. The Deluxe Edition also includes a Blu-Ray audio disc with high-resolution stereo and surround mixes of the original album, mixed by original engineer Elliot Scheiner, who also oversaw the new re-mastering of the album.
One of the most significant revelations is “I Shall Sing,” a Morrison original that was completed but left off the album. There are multiple takes of the song (spread across six tracks), plus a final mix of the finished song. While no one has heard Morrison’s version, Art Garfunkel had a Top 40 hit with the song, which appeared on his 1973 solo debut.

Tracklist: [01] And It Stoned Me
[02] Moondance
[03] Crazy Love
[04] Caravan
[05] Into The Mystic
[06] Come Running
[07] These Dreams Of You
[08] Brand New Day
[09] Everyone
[10] Glad Tidings

Quality: Blu-ray Disc
Container: BDMV
Video codec: MPEG-2
Audio Codec: Dolby TrueHD

DISC INFO:

Disc Title:     VAN_MORRISON_MOONDANCE
Disc Size:      5 485 887 168 bytes
Protection:     AACS
BD-Java:        No
BDInfo:         0.5.8

PLAYLIST REPORT:

Name:                   00001.MPLS
Length:                 0:39:20.816 (h:m:s.ms)
Size:                   5 485 836 288 bytes
Total Bitrate:          18.59 Mbps

VIDEO:

Codec                   Bitrate             Description
-----                   -------             -----------
MPEG-2 Video            2000 kbps           720p / 23.976 fps / 16:9

AUDIO:

Codec                           Language        Bitrate         Description
-----                           --------        -------         -----------
Dolby TrueHD Audio              English         7506 kbps       5.1 / 96 kHz / 7506 kbps / 16-bit (AC3 Embedded: 5.1 / 48 kHz / 448 kbps / DN -4dB)
Dolby TrueHD Audio              English         5105 kbps       2.0 / 192 kHz / 5105 kbps / 16-bit (AC3 Embedded: 2.0 / 48 kHz / 224 kbps / DN -4dB)

SUBTITLES:

Codec                           Language        Bitrate         Description
-----                           --------        -------         -----------
Interactive Graphics            English         147.446 kbps

FILES:

Name            Time In         Length          Size            Total Bitrate
----            -------         ------          ----            -------------
00000.M2TS      0:00:00.000     0:04:34.983     650 145 792     18 914
00001.M2TS      0:04:34.983     0:04:37.235     650 219 520     18 763
00012.M2TS      0:09:12.218     0:02:37.949     338 380 800     17 139
00013.M2TS      0:11:50.167     0:05:05.138     702 455 808     18 417
00014.M2TS      0:16:55.305     0:03:29.584     489 400 320     18 681
00015.M2TS      0:20:24.890     0:02:33.611     363 239 424     18 917
00016.M2TS      0:22:58.502     0:03:53.983     549 795 840     18 798
00017.M2TS      0:26:52.485     0:05:10.727     704 581 632     18 140
00018.M2TS      0:32:03.212     0:03:34.297     509 337 600     19 014
00019.M2TS      0:35:37.510     0:03:43.306     528 279 552     18 926

CHAPTERS:

Number          Time In         Length          Avg Video Rate  Max 1-Sec Rate  Max 1-Sec Time  Max 5-Sec Rate  Max 5-Sec Time  Max 10Sec Rate  Max 10Sec Time  Avg Frame Size  Max Frame Size  Max Frame Time
------          -------         ------          --------------  --------------  --------------  --------------  --------------  --------------  --------------  --------------  --------------  --------------
1               0:00:00.000     0:04:34.983     2 001 kbps      2 219 kbps      00:01:53.738    2 049 kbps      00:04:29.978    2 025 kbps      00:04:24.973    10 432 bytes    73 941 bytes    00:00:48.089
2               0:04:34.983     0:04:37.235     2 000 kbps      2 351 kbps      00:09:11.217    2 027 kbps      00:09:07.213    2 013 kbps      00:09:02.208    10 426 bytes    73 941 bytes    00:05:23.072
3               0:09:12.218     0:02:37.949     1 999 kbps      2 219 kbps      00:11:05.956    2 043 kbps      00:11:45.162    2 021 kbps      00:11:40.157    10 422 bytes    73 941 bytes    00:10:00.308
4               0:11:50.167     0:05:05.138     1 999 kbps      2 219 kbps      00:13:43.906    2 070 kbps      00:16:50.300    2 035 kbps      00:16:45.295    10 424 bytes    73 941 bytes    00:12:38.257
5               0:16:55.305     0:03:29.584     2 000 kbps      2 348 kbps      00:20:23.889    2 026 kbps      00:20:19.885    2 013 kbps      00:20:14.880    10 428 bytes    73 941 bytes    00:17:43.395
6               0:20:24.890     0:02:33.611     1 999 kbps      2 219 kbps      00:22:18.628    2 049 kbps      00:22:53.497    2 025 kbps      00:22:48.492    10 422 bytes    73 941 bytes    00:21:12.979
7               0:22:58.502     0:03:53.983     2 000 kbps      2 348 kbps      00:26:51.484    2 026 kbps      00:26:47.480    2 013 kbps      00:26:42.475    10 427 bytes    73 941 bytes    00:23:46.591
8               0:26:52.485     0:05:10.727     1 999 kbps      2 219 kbps      00:28:46.224    2 063 kbps      00:31:58.207    2 032 kbps      00:31:53.202    10 424 bytes    73 941 bytes    00:27:40.575
9               0:32:03.212     0:03:34.297     1 999 kbps      2 219 kbps      00:33:56.951    2 049 kbps      00:35:32.505    2 025 kbps      00:35:27.500    10 423 bytes    73 941 bytes    00:32:51.302
10              0:35:37.510     0:03:43.306     1 998 kbps      2 219 kbps      00:37:31.248    2 000 kbps      00:36:09.709    2 000 kbps      00:36:05.663    10 419 bytes    73 941 bytes    00:36:25.599

Download:

https://subyshare.com/3gjd654knye6/VAN_MORRISON_MOONDANCE.part1.rar.html
https://subyshare.com/mqgyrcxlqgzy/VAN_MORRISON_MOONDANCE.part2.rar.html
https://subyshare.com/sm8mux2uuqpl/VAN_MORRISON_MOONDANCE.part3.rar.html
https://subyshare.com/uteyqsnyipxb/VAN_MORRISON_MOONDANCE.part4.rar.html